Skip to main content

Camper Van Beethoven Live at Shank Hall on 2012-01-03




01 intro
02 All Her Favorite Fruit
03 Sweethearts
04 Tania
05 banter - thftli
06 Too High For The Love-In
07 Seven Languages
08 Sad Lover's Waltz
09. Good Guys & Bad Guys
10. Tina
11. The Poppies Of Balmorhea
12. Eye of Fatima
13. You've Got To Roll.RU
14. Cattle (Reversed)
15. banter - nortel
16. Might Makes Right
17. Skinhead Stomp
18. Waka
19. Turquoise Jewelry
20. L'Aguardiente
21. banter- why the pi
22. When I Win The Lottery
23. Skinbowl
24. Pictures Of Matchstick Men
25. Summer Days
26. Opi Rides Again >
27. Club Med Sucks
28. crowd
29. signout


Collection CamperVanBeethoven
Band/Artist Camper Van Beethoven
Venue Shank Hall
Location Milwaukee WI USA

Source DAUD
Lineage DAUD > FLAC24
Taped by morst & digitalist0ne
Transferred by morst & digitalist0ne

Notes

HD Videos by morst, with good audio from this version:













Too High For The Love-In
video at H264 (52mb)
P3060241-AudioFixed_000027.jpg
Too High For The Love-In
video in HD (860MB)
P3060241-AudioFixed.gif
Got To Roll - Cattle (Reversed)
video at H264 (44mb)
P3060242-AudioFixed_000027.jpg
Got To Roll - Cattle (Reversed)
video in HD (1.2GB)
P3060242-AudioFixed.gif
Lottery-Skinheads Bowling
video at H264 (48mb)
P3060560-AudioFixed_000027.jpg
Lottery-Skinheads Bowling
video in HD (1.2GB)
P3060560-AudioFixed.gif

Summer Days
video at H264 (31mb)
P3060560-AudioFixed_000027.jpg
Summer Days
video in HD (698MB)
P3060562-AudioFixed.gif



One more video on youtube with audio from this fileset:
http://youtu.be/a6SqAMVZAuM





Photos (click for larger versions):



P3060030-cr_thumb.jpg>

A1-P3060588_thumb.jpg>


Sources:
Neumann KM140's > Beyer MV100 > PCM-M10 > WAV @24/48
DPA 4061 > Beyer MV100 > PCM-M10 > WAV @24/48

Transfer:
WAV's > MotU Digital Performer 4 > WAV @24/48 > Audacity (tracking) > xACT 2.15 (FLAC level 8 encode & tagging) > FLAC 24/48

SHNTOOL:
length expanded size cdr WAVE problems fmt ratio filename
2:12.119 38050190 B cxx -- ---xx CVB2012-01-03t01.flac
5:17.081 91319348 B cxx -- ---xx CVB2012-01-03t02.flac
4:59.877 86364710 B cxx -- ---xx CVB2012-01-03t03.flac
4:12.638 72759848 B cxx -- ---xx CVB2012-01-03t04.flac
2:02.180 35187806 B cxx -- ---xx CVB2012-01-03t05.flac
5:40.059 97936916 B cxx -- ---xx CVB2012-01-03t06.flac
4:12.835 72816632 B cxx -- ---xx CVB2012-01-03t07.flac
4:13.431 72988118 B cxx -- ---xx CVB2012-01-03t08.flac
4:34.902 79171736 B cxx -- ---xx CVB2012-01-03t09.flac
1:45.140 30280352 B cxx -- ---xx CVB2012-01-03t10.flac
2:58.017 51268910 B cxx -- ---xx CVB2012-01-03t11.flac
5:15.173 90769988 B cxx -- ---xx CVB2012-01-03t12.flac
4:07.932 71404436 B cxx -- ---xx CVB2012-01-03t13.flac
2:45.372 47627216 B cxx -- ---xx CVB2012-01-03t14.flac
2:09.112 37184264 B cxx -- ---xx CVB2012-01-03t15.flac
2:58.968 51542798 B cxx -- ---xx CVB2012-01-03t16.flac
1:49.565 31554842 B cxx -- ---xx CVB2012-01-03t17.flac
2:46.658 47997560 B cxx -- ---xx CVB2012-01-03t18.flac
3:21.545 58045016 B cxx -- ---xx CVB2012-01-03t19.flac
5:51.339 101185532 B cxx -- ---xx CVB2012-01-03t20.flac
1:24.192 24247316 B cxx -- ---xx CVB2012-01-03t21.flac
3:45.640 64984496 B cxx -- ---xx CVB2012-01-03t22.flac
2:46.276 47887460 B cxx -- ---xx CVB2012-01-03t23.flac
4:42.881 81469808 B cxx -- ---xx CVB2012-01-03t24.flac
10:24.170 179760968 B cxx -- ---xx CVB2012-01-03t25.flac
0:49.742 14325692 B cxx -- ---xx CVB2012-01-03t26.flac
4:22.734 75667382 B cxx -- ---xx CVB2012-01-03t27.flac
0:32.418 9336566 B cxx -- ---xx CVB2012-01-03t28.flac
0:50.240 14469050 B cxx -- ---xx CVB2012-01-03t29.flac
102:52.235 1777604956 B 0.6891 (29 files)

-~-~-~-~-~-~-~-~-~-~-~-~-~-~-~-~-~-~-~-~-~-~-~-~-~-
The Soundscape Preservation Society (Founded 1991)
http://www.iamtypingwithonefinger.com/SPS.html
-~-~-~-~-~-~-~-~-~-~-~-~-~-~-~-~-~-~-~-~-~-~-~-~-~-

Reviews

Reviewer: morst - - January 18, 2012
Subject: 7415 15 ^^y f4\/0r173 |34|\||)
I am serious, it's not even fair to rate them.

Five stars. cause I can. *****
DOWNLOAD OPTIONS
Uploaded by
morst
on 1/18/2012
Views
470
Favorites
2
Reviews
1
PEOPLE ALSO FOUND
Camper Van Beethoven
by Camper Van Beethoven
410
0
0
Camper Van Beethoven
by Camper Van Beethoven
2,677
0
1
( 1 reviews )
Source: Sony ECM-717 > Sharp Minidisc MD-MT190
Camper Van Beethoven
by Camper Van Beethoven
148
0
0
Source: soundboard > Sony D5 > TDK MA90 cassette master tape
Camper Van Beethoven
by Camper Van Beethoven
9,939
0
1
( 1 reviews )
Source: Sony ECM-717 > Sharp MD-MT190MD
Camper Van Beethoven
by Camper Van Beethoven
348
0
0
Source: audience > Sony WM-D6c > MCAS
Camper Van Beethoven
by Camper Van Beethoven
1,416
1
0
Source: AT822 > D7(line in) > DATM
Camper Van Beethoven
by Camper Van Beethoven
1,883
2
0
Source: B&K 4011-> Lunatec V2-> Benchmark AD2K+ FOB
Camper Van Beethoven
by Camper Van Beethoven
1,215
1
0
Source: Audience recording > WAV
Camper Van Beethoven
by Camper Van Beethoven
1,559
1
0
Source: DPA 4061 > Sony PCM-D50 > WAV @48/24
Camper Van Beethoven
by Camper Van Beethoven
154
2
0
Source: AKG C568EB Hybrid Shotguns @ 48 volts > Monster Studio Grade XLR > Zoom H4: 48khz / 24 bit